Digitalna televizija (DVB-T/C/S, IPTV, HD, 3D)

Problem reprodukcije filmova - srt82 dvb-t2 stick

AirLive ned 26.12.2021 09:31

Ovaj problem imam još od kad sam ga kupio (studeni 2020.), ali sam tek sad našao vremena za se malo pozabavit sa ovim. Od svih formata koje sam imao na PC i stavio na stick (.mp4, .avi, .wmv, .mkv i .webm) jedino pokazuje .mp4, a ostale niti ne prikaže tj. ne podržava. E sad od 5 .mp4 videa koje imam (neki stari western i sl. za oca) samo 1 želi reproducirati, a za ostale mi izbacuje da je nepodržana datoteka. Taj jedan je za primjer imenovan video5. E sad na win7 ima onaj 30sec video wildlife.wmv kojeg niti ne prikazuje na popisu. Ja sam za test u handrake-u taj funkcionalni video5 i wildlife.wmv encodeao oba u .mp4 sa istim postavkama. Wildlife mi sad učitava i reproducira, a ovaj video5 koji je prije radio prijavljuje da je nepodržana datoteka. Stavljen je najnoviji firmware, jedino ako je neki bug u pitanju koji još nije (a vjerojatno onda da i neće biti) popravljen firmwareom. Ima li neko ideju u čemu bi mogao biti problem, možda neka postavka ili nešto kod encoda ili original videa koju podržava/ne podržava. Nisam baš ekspert za te codece i sl. postavke...

 

Specs od srt82:

 

Stavljam mediainfo za navedena videa (krivo sam kopirao za ova 4 videa šta mi ne rade, sad sam editovao):

 

Video5 prije encodea:

General
Complete name : F:\video5_original.mp4
Format : MPEG-4
Format profile : Base Media / Version 2
Codec ID : mp42 (isom/mp42)
File size : 628 MiB
Duration : 1h 19mn
Overall bit rate mode : Variable
Overall bit rate : 1 098 Kbps
Encoded date : UTC 2018-04-19 20:03:44
Tagged date : UTC 2018-04-19 20:03:44
gsst : 0
gstd : 4799471

Video
ID : 1
Format : AVC
Format/Info : Advanced Video Codec
Format profile : Main@L3.1
Format settings, CABAC : Yes
Format settings, ReFrames : 3 frames
Codec ID : avc1
Codec ID/Info : Advanced Video Coding
Duration : 1h 19mn
Bit rate : 969 Kbps
Width : 960 pixels
Height : 720 pixels
Display aspect ratio : 4:3
Frame rate mode : Constant
Frame rate : 25.000 fps
Color space : YUV
Chroma subsampling : 4:2:0
Bit depth : 8 bits
Scan type : Progressive
Bits/(Pixel*Frame) : 0.056
Stream size : 555 MiB (88%)
Title : ISO Media file produced by Google Inc. Created on: 04/19/2018.
Encoded date : UTC 2018-04-19 20:03:44
Tagged date : UTC 2018-04-19 20:03:44
Color range : Limited
Color primaries : BT.709
Transfer characteristics : BT.709
Matrix coefficients : BT.709

Audio
ID : 2
Format : AAC
Format/Info : Advanced Audio Codec
Format profile : LC
Codec ID : 40
Duration : 1h 19mn
Bit rate mode : Variable
Bit rate : 126 Kbps
Channel(s) : 2 channels
Channel positions : Front: L R
Sampling rate : 44.1 KHz
Frame rate : 43.066 fps (1024 spf)
Compression mode : Lossy
Stream size : 71.9 MiB (11%)
Title : ISO Media file produced by Google Inc. Created on: 04/19/2018.
Language : English
Encoded date : UTC 2018-04-19 20:03:44
Tagged date : UTC 2018-04-19 20:03:44

 

Video5 nakon encodea:

General
Complete name : F:\video5_encode.mp4
Format : MPEG-4
Format profile : Base Media / Version 2
Codec ID : mp42 (isom/iso2/mp41)
File size : 430 MiB
Duration : 1h 19mn
Overall bit rate : 752 Kbps
Encoded date : UTC 2021-12-25 01:33:02
Tagged date : UTC 2021-12-25 01:33:02
Writing application : HandBrake 1.2.2 2019022300

Video
ID : 1
Format : HEVC
Format/Info : High Efficiency Video Coding
Format profile : Main@L3.1@Main
Codec ID : hvc1
Codec ID/Info : High Efficiency Video Coding
Duration : 1h 19mn
Bit rate : 585 Kbps
Width : 960 pixels
Height : 720 pixels
Display aspect ratio : 4:3
Frame rate mode : Constant
Frame rate : 25.000 fps
Color space : YUV
Chroma subsampling : 4:2:0
Bit depth : 8 bits
Bits/(Pixel*Frame) : 0.034
Stream size : 334 MiB (78%)
Writing library : x265 2.9:[Windows][GCC 8.2.0][64 bit] 8bit+10bit+12bit
Encoding settings : cpuid=1111039 / frame-threads=2 / numa-pools=4 / wpp / no-pmode / no-pme / no-psnr / no-ssim / log-level=2 / input-csp=1 / input-res=960x720 / interlace=0 / total-frames=0 / level-idc=0 / high-tier=1 / uhd-bd=0 / ref=1 / no-allow-non-conformance / no-repeat-headers / annexb / no-aud / no-hrd / info / hash=0 / no-temporal-layers / open-gop / min-keyint=25 / keyint=250 / gop-lookahead=0 / bframes=3 / b-adapt=0 / b-pyramid / bframe-bias=0 / rc-lookahead=5 / lookahead-slices=4 / scenecut=0 / radl=0 / no-intra-refresh / ctu=32 / min-cu-size=16 / no-rect / no-amp / max-tu-size=32 / tu-inter-depth=1 / tu-intra-depth=1 / limit-tu=0 / rdoq-level=0 / dynamic-rd=0.00 / no-ssim-rd / no-signhide / no-tskip / nr-intra=0 / nr-inter=0 / no-constrained-intra / strong-intra-smoothing / max-merge=2 / limit-refs=0 / no-limit-modes / me=0 / subme=0 / merange=57 / temporal-mvp / no-weightp / no-weightb / no-analyze-src-pics / deblock=0:0 / no-sao / no-sao-non-deblock / rd=2 / early-skip / rskip / fast-intra / no-tskip-fast / no-cu-lossless / no-b-intra / no-splitrd-skip / rdpenalty=0 / psy-rd=2.00 / psy-rdoq=0.00 / no-rd-refine / no-lossless / cbqpoffs=0 / crqpoffs=0 / rc=crf / crf=22.0 / qcomp=0.60 / qpstep=4 / stats-write=0 / stats-read=0 / ipratio=1.40 / pbratio=1.30 / aq-mode=1 / aq-strength=0.00 / cutree / zone-count=0 / no-strict-cbr / qg-size=32 / no-rc-grain / qpmax=69 / qpmin=0 / no-const-vbv / sar=1 / overscan=0 / videoformat=5 / range=0 / colorprim=1 / transfer=1 / colormatrix=1 / chromaloc=0 / display-window=0 / max-cll=0,0 / min-luma=0 / max-luma=255 / log2-max-poc-lsb=8 / vui-timing-info / vui-hrd-info / slices=1 / no-opt-qp-pps / no-opt-ref-list-length-pps / no-multi-pass-opt-rps / scenecut-bias=0.05 / no-opt-cu-delta-qp / no-aq-motion / no-hdr / no-hdr-opt / no-dhdr10-opt / no-idr-recovery-sei / analysis-reuse-level=5 / scale-factor=0 / refine-intra=0 / refine-inter=0 / refine-mv=0 / no-limit-sao / ctu-info=0 / no-lowpass-dct / refine-mv-type=0 / copy-pic=1 / max-ausize-factor=1.0 / no-dynamic-refine / no-single-sei
Encoded date : UTC 2021-12-25 01:33:02
Tagged date : UTC 2021-12-25 01:33:02
Color range : Limited
Color primaries : BT.709
Transfer characteristics : BT.709
Matrix coefficients : BT.709

Audio
ID : 2
Format : AAC
Format/Info : Advanced Audio Codec
Format profile : LC
Codec ID : 40
Duration : 1h 19mn
Bit rate mode : Constant
Bit rate : 161 Kbps
Channel(s) : 2 channels
Channel positions : Front: L R
Sampling rate : 44.1 KHz
Frame rate : 43.066 fps (1024 spf)
Compression mode : Lossy
Stream size : 91.9 MiB (21%)
Title : Stereo
Language : English
Default : Yes
Alternate group : 1
Encoded date : UTC 2021-12-25 01:33:02
Tagged date : UTC 2021-12-25 01:33:02

 

 

wildlife.wmv:

General
Complete name : C:\Users\Public\Videos\Sample Videos\Wildlife.wmv
Format : Windows Media
File size : 25.0 MiB
Duration : 30s 93ms
Overall bit rate mode : Constant
Overall bit rate : 6 977 Kbps
Maximum Overall bit rate : 6 183 Kbps
Movie name : Wildlife in HD
Encoded date : UTC 2008-08-25 21:11:16.400
Copyright : © 2008 Microsoft Corporation
Comment : Footage: Small World Productions, Inc; Tourism New Zealand | Producer: Gary F. Spradling | Music: Steve Ball
SfOriginalFPS : 299700

Video
ID : 2
Format : VC-1
Format profile : Advanced@L3
Codec ID : WVC1
Codec ID/Hint : Microsoft
Description of the codec : Windows Media Video 9 Advanced Profile
Duration : 30s 97ms
Bit rate mode : Constant
Bit rate : 5 942 Kbps
Width : 1 280 pixels
Height : 720 pixels
Display aspect ratio : 16:9
Frame rate : 29.970 (29970/1000) fps
Color space : YUV
Chroma subsampling : 4:2:0
Bit depth : 8 bits
Scan type : Progressive
Compression mode : Lossy
Bits/(Pixel*Frame) : 0.215
Stream size : 21.3 MiB (85%)
Language : English (US)

Audio
ID : 1
Format : WMA
Format version : Version 2
Codec ID : 161
Codec ID/Info : Windows Media Audio
Description of the codec : Windows Media Audio 9.2 - 192 kbps, 44 kHz, stereo (A/V) 1-pass CBR
Duration : 30s 92ms
Bit rate mode : Constant
Bit rate : 192 Kbps
Channel(s) : 2 channels
Sampling rate : 44.1 KHz
Bit depth : 16 bits
Stream size : 705 KiB (3%)
Language : English (US)

 

 

wildlife.mp4 nakon encodea:

General
Complete name : F:\wildlife_encode.mp4
Format : MPEG-4
Format profile : Base Media / Version 2
Codec ID : mp42 (isom/iso2/mp41)
File size : 17.3 MiB
Duration : 30s 94ms
Overall bit rate : 4 818 Kbps
Movie name : Wildlife in HD
Encoded date : UTC 2021-12-26 06:35:02
Tagged date : UTC 2021-12-26 06:35:02
Writing application : HandBrake 1.2.2 2019022300
Comment : Footage: Small World Productions, Inc; Tourism New Zealand | Producer: Gary F. Spradling | Music: Steve Ball

Video
ID : 1
Format : HEVC
Format/Info : High Efficiency Video Coding
Format profile : Main@L3.1@Main
Codec ID : hvc1
Codec ID/Info : High Efficiency Video Coding
Duration : 30s 64ms
Bit rate : 4 650 Kbps
Width : 1 280 pixels
Height : 720 pixels
Display aspect ratio : 16:9
Frame rate mode : Constant
Frame rate : 29.970 (30000/1001) fps
Color space : YUV
Chroma subsampling : 4:2:0
Bit depth : 8 bits
Bits/(Pixel*Frame) : 0.168
Stream size : 16.7 MiB (96%)
Writing library : x265 2.9:[Windows][GCC 8.2.0][64 bit] 8bit+10bit+12bit
Encoding settings : cpuid=1111039 / frame-threads=2 / numa-pools=4 / wpp / no-pmode / no-pme / no-psnr / no-ssim / log-level=2 / input-csp=1 / input-res=1280x720 / interlace=0 / total-frames=0 / level-idc=0 / high-tier=1 / uhd-bd=0 / ref=1 / no-allow-non-conformance / no-repeat-headers / annexb / no-aud / no-hrd / info / hash=0 / no-temporal-layers / open-gop / min-keyint=30 / keyint=300 / gop-lookahead=0 / bframes=3 / b-adapt=0 / b-pyramid / bframe-bias=0 / rc-lookahead=5 / lookahead-slices=4 / scenecut=0 / radl=0 / no-intra-refresh / ctu=32 / min-cu-size=16 / no-rect / no-amp / max-tu-size=32 / tu-inter-depth=1 / tu-intra-depth=1 / limit-tu=0 / rdoq-level=0 / dynamic-rd=0.00 / no-ssim-rd / no-signhide / no-tskip / nr-intra=0 / nr-inter=0 / no-constrained-intra / strong-intra-smoothing / max-merge=2 / limit-refs=0 / no-limit-modes / me=0 / subme=0 / merange=57 / temporal-mvp / no-weightp / no-weightb / no-analyze-src-pics / deblock=0:0 / no-sao / no-sao-non-deblock / rd=2 / early-skip / rskip / fast-intra / no-tskip-fast / no-cu-lossless / no-b-intra / no-splitrd-skip / rdpenalty=0 / psy-rd=2.00 / psy-rdoq=0.00 / no-rd-refine / no-lossless / cbqpoffs=0 / crqpoffs=0 / rc=crf / crf=22.0 / qcomp=0.60 / qpstep=4 / stats-write=0 / stats-read=0 / ipratio=1.40 / pbratio=1.30 / aq-mode=1 / aq-strength=0.00 / cutree / zone-count=0 / no-strict-cbr / qg-size=32 / no-rc-grain / qpmax=69 / qpmin=0 / no-const-vbv / sar=1 / overscan=0 / videoformat=5 / range=0 / colorprim=1 / transfer=1 / colormatrix=1 / chromaloc=0 / display-window=0 / max-cll=0,0 / min-luma=0 / max-luma=255 / log2-max-poc-lsb=8 / vui-timing-info / vui-hrd-info / slices=1 / no-opt-qp-pps / no-opt-ref-list-length-pps / no-multi-pass-opt-rps / scenecut-bias=0.05 / no-opt-cu-delta-qp / no-aq-motion / no-hdr / no-hdr-opt / no-dhdr10-opt / no-idr-recovery-sei / analysis-reuse-level=5 / scale-factor=0 / refine-intra=0 / refine-inter=0 / refine-mv=0 / no-limit-sao / ctu-info=0 / no-lowpass-dct / refine-mv-type=0 / copy-pic=1 / max-ausize-factor=1.0 / no-dynamic-refine / no-single-sei
Encoded date : UTC 2021-12-26 06:35:02
Tagged date : UTC 2021-12-26 06:35:02
Color range : Limited
Color primaries : BT.709
Transfer characteristics : BT.709
Matrix coefficients : BT.709

Audio
ID : 2
Format : AAC
Format/Info : Advanced Audio Codec
Format profile : LC
Codec ID : 40
Duration : 30s 94ms
Bit rate mode : Constant
Bit rate : 161 Kbps
Channel(s) : 2 channels
Channel positions : Front: L R
Sampling rate : 44.1 KHz
Frame rate : 43.066 fps (1024 spf)
Compression mode : Lossy
Stream size : 592 KiB (3%)
Title : Stereo
Language : English
Default : Yes
Alternate group : 1
Encoded date : UTC 2021-12-26 06:35:02
Tagged date : UTC 2021-12-26 06:35:02

 

 

Ostali .mp4 videi koji izbacuju grešku (nepodržana datoteka)

 

video1:

General
Complete name : F:\video1.MP4
Format : MPEG-4
Format profile : Base Media
Codec ID : isom (isom/iso2/avc1/mp41)
File size : 644 MiB
Duration : 1h 47mn
Overall bit rate : 840 Kbps
Writing application : Lavf55.48.100

Video
ID : 1
Format : AVC
Format/Info : Advanced Video Codec
Format profile : Main@L3
Format settings, CABAC : Yes
Format settings, ReFrames : 1 frame
Format settings, GOP : M=1, N=29
Codec ID : avc1
Codec ID/Info : Advanced Video Coding
Duration : 1h 47mn
Bit rate : 705 Kbps
Width : 640 pixels
Height : 480 pixels
Display aspect ratio : 4:3
Frame rate mode : Constant
Frame rate : 29.970 (29970/1000) fps
Original frame rate : 29.970 (30000/1001) fps
Color space : YUV
Chroma subsampling : 4:2:0
Bit depth : 8 bits
Scan type : Progressive
Bits/(Pixel*Frame) : 0.077
Stream size : 541 MiB (84%)

Audio
ID : 2
Format : AAC
Format/Info : Advanced Audio Codec
Format profile : LC
Codec ID : 40
Duration : 1h 47mn
Bit rate mode : Constant
Bit rate : 128 Kbps
Channel(s) : 2 channels
Channel positions : Front: L R
Sampling rate : 44.1 KHz
Frame rate : 43.066 fps (1024 spf)
Compression mode : Lossy
Stream size : 98.4 MiB (15%)
Default : Yes
Alternate group : 1

 

 

video2:

General
Complete name : F:\video2.mp4
Format : MPEG-4
Format profile : Base Media
Codec ID : isom (isom/iso2/avc1/mp41)
File size : 1.97 GiB
Duration : 1h 43mn
Overall bit rate : 2 730 Kbps
Movie name : The.Hurricane.1937.1080p.BluRay.H264.AAC-RARBG
Encoded date : UTC 2019-01-15 15:46:34
Tagged date : UTC 2019-01-15 15:46:34
Writing application : Lavf58.20.100
Comment : The.Hurricane.1937.1080p.BluRay.H264.AAC-RARBG

Video
ID : 1
Format : AVC
Format/Info : Advanced Video Codec
Format profile : High@L4.1
Format settings, CABAC : Yes
Format settings, ReFrames : 4 frames
Codec ID : avc1
Codec ID/Info : Advanced Video Coding
Duration : 1h 43mn
Bit rate : 2 500 Kbps
Width : 1 488 pixels
Height : 1 080 pixels
Display aspect ratio : 1.378
Frame rate mode : Constant
Frame rate : 23.976 (23976/1000) fps
Color space : YUV
Chroma subsampling : 4:2:0
Bit depth : 8 bits
Scan type : Progressive
Bits/(Pixel*Frame) : 0.065
Stream size : 1.81 GiB (92%)
Writing library : x264 core 152 r2851M ba24899
Encoding settings : cabac=1 / ref=4 / deblock=1:-1:-1 / analyse=0x3:0x113 / me=umh / subme=9 / psy=1 / psy_rd=1.00:0.15 / mixed_ref=1 / me_range=24 / chroma_me=1 / trellis=2 / 8x8dct=1 / cqm=0 / deadzone=21,11 / fast_pskip=1 / chroma_qp_offset=-3 / threads=32 / lookahead_threads=4 / sliced_threads=0 / nr=0 / decimate=1 / interlaced=0 / bluray_compat=0 / constrained_intra=0 / bframes=3 / b_pyramid=2 / b_adapt=2 / b_bias=0 / direct=3 / weightb=1 / open_gop=0 / weightp=2 / keyint=250 / keyint_min=25 / scenecut=40 / intra_refresh=0 / rc_lookahead=50 / rc=2pass / mbtree=1 / bitrate=2500 / ratetol=1.0 / qcomp=0.60 / qpmin=0 / qpmax=69 / qpstep=4 / cplxblur=20.0 / qblur=0.5 / vbv_maxrate=31250 / vbv_bufsize=31250 / nal_hrd=none / filler=0 / ip_ratio=1.40 / aq=3:1.00
Encoded date : UTC 2019-01-15 15:46:34
Tagged date : UTC 2019-01-15 15:46:34

Audio
ID : 2
Format : AAC
Format/Info : Advanced Audio Codec
Format profile : LC
Codec ID : 40
Duration : 1h 43mn
Bit rate mode : Constant
Bit rate : 224 Kbps
Channel(s) : 2 channels
Channel positions : Front: L R
Sampling rate : 48.0 KHz
Frame rate : 46.875 fps (1024 spf)
Compression mode : Lossy
Stream size : 166 MiB (8%)
Language : English
Default : Yes
Alternate group : 1
Encoded date : UTC 2019-01-15 15:46:34
Tagged date : UTC 2019-01-15 15:46:34

 

 

video3:

General
Complete name : F:\video3.mp4
Format : MPEG-4
Format profile : Base Media
Codec ID : isom (isom/avc1)
File size : 808 MiB
Duration : 1h 45mn
Overall bit rate mode : Variable
Overall bit rate : 1 074 Kbps
Encoded date : UTC 2015-10-14 15:54:00
Tagged date : UTC 2015-10-14 15:54:00

Video
ID : 1
Format : AVC
Format/Info : Advanced Video Codec
Format profile : High@L4.1
Format settings, CABAC : Yes
Format settings, ReFrames : 4 frames
Codec ID : avc1
Codec ID/Info : Advanced Video Coding
Duration : 1h 45mn
Bit rate : 975 Kbps
Maximum bit rate : 3 601 Kbps
Width : 1 280 pixels
Height : 720 pixels
Display aspect ratio : 16:9
Frame rate mode : Constant
Frame rate : 23.976 (24000/1001) fps
Original frame rate : 23.976 (23976/1000) fps
Color space : YUV
Chroma subsampling : 4:2:0
Bit depth : 8 bits
Scan type : Progressive
Bits/(Pixel*Frame) : 0.044
Stream size : 734 MiB (91%)
Writing library : x264 core 123 r2189 35cf912
Encoding settings : cabac=1 / ref=4 / deblock=1:-1:-1 / analyse=0x3:0x133 / me=umh / subme=9 / psy=1 / psy_rd=1.00:0.15 / mixed_ref=1 / me_range=24 / chroma_me=1 / trellis=2 / 8x8dct=1 / cqm=0 / deadzone=21,11 / fast_pskip=0 / chroma_qp_offset=-3 / threads=48 / sliced_threads=0 / nr=0 / decimate=1 / interlaced=0 / bluray_compat=0 / constrained_intra=0 / bframes=3 / b_pyramid=2 / b_adapt=2 / b_bias=0 / direct=3 / weightb=1 / open_gop=0 / weightp=2 / keyint=250 / keyint_min=23 / scenecut=40 / intra_refresh=0 / rc_lookahead=60 / rc=2pass / mbtree=1 / bitrate=975 / ratetol=1.0 / qcomp=0.60 / qpmin=0 / qpmax=69 / qpstep=4 / cplxblur=20.0 / qblur=0.5 / vbv_maxrate=31250 / vbv_bufsize=31250 / nal_hrd=none / ip_ratio=1.40 / aq=1:1.00
Encoded date : UTC 2015-10-14 15:54:00
Tagged date : UTC 2015-10-14 15:54:08
Color range : Limited
Color primaries : BT.709
Matrix coefficients : BT.709

Audio
ID : 2
Format : AAC
Format/Info : Advanced Audio Codec
Format profile : LC
Codec ID : 40
Duration : 1h 45mn
Bit rate mode : Variable
Bit rate : 96.0 Kbps
Maximum bit rate : 99.8 Kbps
Channel(s) : 1 channel
Channel positions : Front: C
Sampling rate : 48.0 KHz
Frame rate : 46.875 fps (1024 spf)
Compression mode : Lossy
Stream size : 71.2 MiB (9%)
Language : English
Encoded date : UTC 2015-10-14 15:54:07
Tagged date : UTC 2015-10-14 15:54:08

 

 

video4:

General
Complete name : F:\video4.mp4
Format : MPEG-4
Format profile : Base Media
Codec ID : isom (isom)
File size : 1.94 GiB
Duration : 2h 36mn
Overall bit rate mode : Variable
Overall bit rate : 1 778 Kbps
Encoded date : UTC 2012-12-09 16:20:19
Tagged date : UTC 2012-12-09 16:20:19

Video
ID : 1
Format : AVC
Format/Info : Advanced Video Codec
Format profile : High@L4
Format settings, CABAC : Yes
Format settings, ReFrames : 4 frames
Codec ID : avc1
Codec ID/Info : Advanced Video Coding
Duration : 2h 36mn
Bit rate : 1 663 Kbps
Maximum bit rate : 15.0 Mbps
Width : 1 920 pixels
Height : 816 pixels
Display aspect ratio : 2.35:1
Frame rate mode : Constant
Frame rate : 23.976 (24000/1001) fps
Color space : YUV
Chroma subsampling : 4:2:0
Bit depth : 8 bits
Scan type : Progressive
Bits/(Pixel*Frame) : 0.044
Stream size : 1.82 GiB (94%)
Writing library : x264 core 129 r2230 1cffe9f
Encoding settings : cabac=1 / ref=3 / deblock=1:0:0 / analyse=0x3:0x113 / me=hex / subme=7 / psy=1 / psy_rd=1.00:0.00 / mixed_ref=1 / me_range=16 / chroma_me=1 / trellis=1 / 8x8dct=1 / cqm=0 / deadzone=21,11 / fast_pskip=1 / chroma_qp_offset=-2 / threads=12 / lookahead_threads=2 / sliced_threads=0 / nr=0 / decimate=1 / interlaced=0 / bluray_compat=0 / constrained_intra=0 / bframes=4 / b_pyramid=2 / b_adapt=1 / b_bias=0 / direct=1 / weightb=1 / open_gop=0 / weightp=2 / keyint=240 / keyint_min=23 / scenecut=40 / intra_refresh=0 / rc_lookahead=40 / rc=2pass / mbtree=1 / bitrate=1663 / ratetol=1.0 / qcomp=0.60 / qpmin=0 / qpmax=69 / qpstep=4 / cplxblur=20.0 / qblur=0.5 / ip_ratio=1.40 / aq=1:1.00
Encoded date : UTC 2012-12-09 14:55:54
Tagged date : UTC 2012-12-09 16:20:35

Audio
ID : 2
Format : AAC
Format/Info : Advanced Audio Codec
Format profile : LC
Codec ID : 40
Duration : 2h 36mn
Bit rate mode : Variable
Bit rate : 112 Kbps
Maximum bit rate : 126 Kbps
Channel(s) : 2 channels
Channel positions : Front: L R
Sampling rate : 48.0 KHz
Frame rate : 46.875 fps (1024 spf)
Compression mode : Lossy
Stream size : 125 MiB (6%)
Language : English
Encoded date : UTC 2012-12-09 16:20:33
Tagged date : UTC 2012-12-09 16:20:35

 

Wolverine ned 26.12.2021 09:51

jesi siguran da uopće ima funkciju reproducirati filmove koje ti staviš na stick? koliko vidim na proizvođačevim stranicama može reproducirati samo ono što stick sam snimi sa tv programa i time shift funkcije. kod takvih gadgeta obično izričito navedu da može reproducirati određene formate

AirLive ned 26.12.2021 10:02

Pa ono u manualu piše da može + kao što sam napisao radi mi onaj wildlife klip nakon encodea u .mp4 i onaj 1 .mp4 prije encoda...

Jedino ako misliš na ovo što sam označio na 2. slici tu u manualu.

 

Edit: A u postavkama ima mogućnost za namještanje veličine i boje titlova tako da vjerujem da to znači da bi trebao moći reproducirat (barem neki) video...

inŽenjer ned 26.12.2021 10:25

U tehničkim detaljima piše da podržava dolby digital + (mediainfo prikazuje kao e-ac3), dolby digital (ac3) te mp3, a nigdje ne piše da podržava AAC kodek... Ja bi u tvojem slučaju probao maknuti zvuk iz videa, da vidiš radi li onda pojedini video, a ako radi problem je u zvuku (zanemari wmv videe i onako nista od filmova nije kodirano u tom formatu)... To možeš napraviti tako da u handbrakeu staviš za video "pass-through", a u kartici zvuk staviš "disable".. to ti napamet govorim za handbrake, ali tako bi otprilike trebale biti postavke.. to u principu remuxa video bez enkodiranja i brzo je gotovo... A ako radi mogu ti dalje objasniti što da napraviš...